FOLLOW US ON FACEBOOK

           images

Scratch !

Visitors

CLASSIC ROCK MIX 2014 VOL.1 ( By Dj Kosta )

front 1 low

Back 1 low

 

 

 

 

CLASSIC ROCK MIX 2014 VOL.1 ( By Dj Kosta )

 

 
TRACKLIST

 

 

01.Lenny Kravitz – Fly Away
02.Green Day – Boulevard Of Broken Dreams
03.Lenny Kravitz – American Woman
04.Beck – Loser
05.Oasis – Wonderwall
06.Steve Miller Band – The Joker
07.Red Hot Chili Peppers – Give It Away
08.Alannah Myles – Black Velvet
09.Joan Jett – I love Rock n’ Roll
10.Santana – Maria Maria
11.Roxxette – The Look
12.Toto – Africa
13.Violent Femmes – Blister In The Sun
14.Lynard Skynard – Sweet Home Alabama
15.Depeche Mode – It’s No Good
16.AC-DC – Back In Black
17.Guns ‘N Roses – Paradise City
18.Crazy Town – Butterfly
19.Red Hot Chili Peppers – Snow
20.Offspring – Self Esteem
21.Linkin Park – In The End
22.Happy Mondays – Step On
23.U2 – Pride (In the name of love)
24.Kid Rock – All Summer Long
25.Pink Floyd – Another Brick In The Wall
26.Survivor- Eye Of The Tiger
27.Queen – Another One Bites The Dust
28.Spin Doctor Feat.Douglas – Two Princes Fighting
29.Simple Minds – Don’t you (forget about me)
30.David Bowie – Let’s Dance
31.AC-DC – Highway To Hell
32.The Commitments – Mustang Sally
33.Santana feat. Rob Thomas – Smooth
34.Blur – Girls And Boys
35.ZZ Top – Gimme All Your Lovin’
36.Midnight Oil – Beds Are Burning

 

 

( Mixed & Compiled By Dj Kosta )

 

 

LINK : Very Soon ….

TOP POP MIX PARADE VOL.2 ( By Dj Kosta ) – VIDEOMIX

10006999_10152376887885420_1578710521453022997_n

 

 

 

WATCH DEMO HERE :

 

 

 

TRACKLIST

01.Diana King – Shy Guy
02.Shaggy – It Wasn’t Me
03.Santana – Maria Maria
04.Tina Charles – I Love to Love
05.Laid Back – Sunshine Reggae
06.Mr.Mister – Broken Wings
07.ABBA – Dancing Queen
08.Linear – Sending All My Love
09.Justin Timberlake – Rock Your Body
10.Lisa Stansfield – All Around The World
11.Shinehead – Jamaican In New York
12.Tom Tom Club – Genius Of Love
13.Bee Gees – Stayin Alive
14.Crazy Town – Butterfly
15.Savage – Don’t Cry Tonight
16.Spin Doctors – Two Princes
17.Hot Chocolate – You Sexy Thing
18.Men at Work – Down Under
19.Bee Gees – More Than A Woman
20.Dexys Midnight Runners – Come On Eileen
21.Wild Cherry – Play That Funky Music
22.Will Smith – Gettin Jiggy With It
23.Matthew Wilder – Break My Stride
24.Djk – Self Control
25.Michael Jackson – Remember The Time
26.James Brown – Sex Machine
27.INXS – Need You Tonight
28.KC & The Sunshine Band – Thats The Way I Like It
29.Barry White – Can’t Get Enough Of Your Love Babe
30.Jimmy Cliff – Reggae Night
31.Puff Daddy – I’ll Be Missing You
32.Bobby Brown – My Prerogative
33.2Pac – Changes
34.Black Eyed Peas – Shut Up
35.Sugarhill Gang – Rapper’s Delight
36.Rick Astley – Never Gonna Give You Up
37.Depeche Mode – Enjoy The Silence
38.Kool & The Gang – Ladies Night
39.Rod Stewart – Do Ya Think I’m Sexy
40.Kim Carnes – Bette Davis Eyes
41.Roy Orbinson – You Got It
42.Madonna – Into The Groove
43.Bruno Mars – Treasure
44.Billy Ocean – Caribean Queen
45.Jennifer Paige – Crush
46.Yazoo – Situation
47.Black Box – Strike it up
48.Tom Jones and Mousse T – Sex Bomb

( Mixed & Compiled By Dj Kosta – Greece )

( Video Edit By Vj Marloz – Mexico )

LINK :

https://mega.co.nz/#!dJxwDAhY!o-1ZF75_i-pa0icnk54_Spcx2O0B6C_b1gsHrQUL9M8

SUNSHINE MIX 2014 ( By Dj Kosta )

1922306_566239416822573_6395889587638855648_n

10170754_566239423489239_8822137344687447089_n

 

 

SUNSHINE MIX 2014 ( By Dj Kosta )

 

 

 

 

TRACKLIST
01.Engelbert Humberdinck – Take My Heart
02.Sunclair – Der kommissar
03.Swarowsky – The Last Of The Mohicans
04.George Michael – Careless Whisper
05.Mr. Probz – Waves
06.Bill Withers – Who Is He
07.Kandi & Fitch – Sunset Beach
08.Duke Dumont Feat. Jax Jones – I Got U
09.Bill Withers – Ain’t No Sunshine
10.Billie Ray Martin – Your Loving Arms
11.Clean Bandit – Rather B
12.Mama Knows Better – Sunny
13.Route 94 Feat.Jess Glynne – My Love
14.Kristine W – Feel What U Want
15.Vaya Con Dios – Puerto Rico
16.Klangkarussell Feat.Will Heard – Sonnentanz (Sun Don’t Shine)
17.Calvin Adam – True Le Baron
18.Ultra Nate – Free
19.Christopher Cross – Ride Like The Wind
20.Faul & Wad Ad vs Pnau – Changes
21.Bakermat – Zomer
22.Paul Kalkbrenner – Sky and Sand
23.Naughty Boy Feat.Sam Smith – La La La
24.Prestige – Let The Sunshine In
25.GPP – Lily Was Here
26.Southside Johnny & The Asbury Jukes – Captured
( Mixed & Compiled By Dj Kosta )

 

 

LINK :

 

http://www13.zippyshare.com/v/77538648/file.html

 

COVERS + TRACKLIST

 

http://www40.zippyshare.com/v/33562077/file.html

DJ KOSTA TRIBUTE TO REGGAE 2014

front

back

 

 

DJ KOSTA TRIBUTE TO REGGAE 2014

 

 


 

 

TRACKLIST

 
01.Bob Marley & The Wailers – Is This Love
02.Bob Marley & The Wailers – Jamming
03.Groove Da Praia – Memories
04.Freedom Dub – Somebody That I Used to Know
05.Daynea Deacon – Time After Time
06.Blackroom – Roxanne
07.Uni’verss – Such a Shame
08.Jimmy Lindsay – Ain’t No Sunshine
09.The Reggister’s – Back to Black
10.Bob Marley & The Wailers – Roots Rock Dub
11.Njelle Hamilton – Every Breath You Take
12.Uni’verss – Twist in My Sobriety
13.Stanryck and Uni’verss – Nothing Compares 2 U
14.All So High – Three Little Birds
15.Uni’verss – Sign Your Name
16.All So High – Waiting In Vain
17.Stanryck – Easy
18.Empress Latoyah – Your Love Is King
19.Empress Latoyah – Lovely Day
20.Samara Curtis – Black Velvet
21.Blackroom – Hotel California
22.Empress Latoyah – Careless Whisper
23.Daynea Deacon – I Still Haven’t Found What I’m Looking For
24.Kharuso – Wonderful Life
25.Beezy Coleman – Drive
26.Stanryck – Take On Me
27.Blackroom – Maneater
28.Gavin Porsche – Karma Chameleon
29.Johnny Osbourne – You Sexy Thing
30.Andru_Donalds – Mishale
31.Cocoa Tea & Shabba Ranks – Just Be Good To Me
32.Kharuso – Sexual Healing
33.UB40 – Red Red Wine
34.Samara Curtis – Self Control
35.Empress Latoyah – What’s Love Got to Do With It
36.Inner Circle – Unchained Melody

 

 

( Mixed & Compiled By Dj Kosta )

 

 

LINK :

 

http://www3.zippyshare.com/v/58889085/file.html

 

 

COVERS +  INFO :

 

http://www65.zippyshare.com/v/90222975/file.html

DJ POL465 – ENJOY THE CLASSICS Vol. 3 (VIDEOMIX)

DJ POL465 – ENJOY THE CLASSICS Vol. 3 (VIDEOMIX)

 

tracklist:

00. Intro
01. Wham! – Everything She Wants
02. Roy Orbison – You Got It
03. Cher – The Shoop Shoop Song (It’s In His Kiss)
04. Barry Manilow – Copacabana (At the Copa)
05. Barrabas – On The Road Again
06. Gloria Estefan & Miami Sound Machine – Dr. Beat
07. Freeez – I.O.U.
08. Rick James – Give It To Me Baby
09. Sister Sledge – We Are Family
10. Whitney Houston – How Will I Know
11. Rose Laurens – Africa
12. Eartha Kitt – Where Is My Man
13. Matia Bazar – Ti Sento
14. Ivan – Fotonovela
15. Laid Back – Bakerman
16. Daryl Hall & John Oates – Private Eyes
17. Johnny Hates Jazz – Shattered Dreams
18. Jason Donovan – Too Many Broken Hearts
19. Debbie Gibson – Shake Your Love
20. Bryan Ferry – Let’s Stick Together
21. Arrow – Hot Hot Hot
22. Gloria Estefan & Miami Sound Machine – Conga
23. Eddy Grant – Boys In The Street
24. Cyndi Lauper – Girls Just Want To have Fun
25. Lipps Inc. – Funkytown
26. Raffaella Carra – A Far L’amore Comincia Tu
27. Jermaine Stewart – We Don’t Have To, Take Our Clothes Off To Have A Good Time
28. Gary Low – You’re a Danger
29. Tom Jones and Mousse T – Sexbomb
30. Belinda Carlisle – La luna
31. Roxette – Dangerous
32. 10,000 Maniacs – Because The Night (Live)
33. The Archies – Sugar Sugar
34. Beatles – Twist and Shout
35. Phil Collins – Sussudio
36. Sheryl Lee Ralph – In The Evening
37. Evelyn Thomas – High Energy
38. Camouflage – The Great Commandment
39. Martika – I Feel The Earth Move
40. Pet Shop Boys – Always On My Mind
41. Irene Cara – Flashdance (What A Feeling)
42. Mandy Smith – Positive Reaction
43. Gloria Estefan & Miami Sound Machine – 1-2-3
44. The Cutting Crew – (I Just) Died In Your Arms Tonight
45. Suzanne vega – Luka
46. F.R. Davids – Words
47. Shania Twain – That Don’t Impress Me Much
48. ABC – When Smokey Sings
49. Donna Summer – I Feel Love
50. Bananarama – Venus
51. The Drapers – Yakety Yak
52. Boney M – Rasputin
53. Village People – Y.M.C.A
54. Smokie – I’ll Meet You At Midnight
55. Smokie – Living Next Door To Alice
56. Men at Work – Who Can It Be Now
57. Roy Orbison – Oh, Pretty Woman
58. Prince – When Doves Cry
59. Midge Ure – If I Was
60. Mike Oldfield – Moonlight Shadow
61. Billy Joel – Uptown Girl
62. The Outfield – Your Love
63. Yazoo – Nobody’s Diary
64. Public Image Ltd. – This Is Not A Love Song
65. Black – Everything’s Coming Up Roses
66. Belinda Carlisle – Leave a light on
67. A-Ha – The Sun Always Shines On TV
68. New Order – Blue Monday ’88
69. Tiffany – I Think We’re Alone Now
70. Eddy Grant – Gimme Hope Jo’anna
71. Lynn Anderson – Rose Garden
72. The Shorts – Comment Ca Va
73. Sacha Distel – Monsieur Cannibal
74. Philip Oakey & Giorgio Moroder – Together In Electric Dreams
75. Falco – Vienna Calling
76. Buggles – Video Killed The Radio Star
77. Boney M – Belfast
78. Irene Cara – Fame
79. Trans X – Living On Video
80. Philip Bailey And Phil Collins – Easy Lover
81. Sylvester – You Make Me Feel (Mighty Real)
82. Wham! – I’m Your Man
83. Trio – Da Da Da
84. Rick James – Super Freak
85. MC Hammer – U Can’t Touch This
86. Womack & Womack – Teardrops
87. Danny Wilson – Mary’s Prayer
88. Ultravox – Hymn
89. David Bowie – China Girl
90. Lionel Richie – Dancing On The Ceiling
91. The Communards – Never Can Say Goodbye
92. The Great Disco Bouzouki Band – Disco bouzuki

INFO:
Complete name : DJ POL465 - ENJOY THE CLASSICS Vol.3 (Videomix)
Format : MPEG-4
Format profile : Base Media / Version 2
Codec ID : mp42
File size : 3.90 GiB
Duration : 1h 15mn
Overall bit rate mode : Variable
Overall bit rate : 7 380 Kbps
Video
Format : AVC
Format/Info : Advanced Video Codec
Format profile : High@L5.0
Format settings, CABAC : Yes
Format settings, ReFrames : 8 frames
Codec ID : avc1
Codec ID/Info : Advanced Video Coding
Duration : 1h 15mn
Bit rate mode : Variable
Bit rate : 6 991 Kbps
Maximum bit rate : 7 500 Kbps
Width : 1 440 pixels
Height : 810 pixels
Display aspect ratio : 16:9
Bits/(Pixel*Frame) : 0.240
Stream size : 3.69 GiB (95%)
Audio
ID : 1
Format : AAC
Format/Info : Advanced Audio Codec
Format profile : LC
Duration : 1h 15mn
Bit rate mode : Constant
Bit rate : 384 Kbps
Original Channel count : 2 channels
Sampling rate : 48.0 KHz

LINK :    

part 01: http://www36.zippyshare.com/v/70960428/file.html
part 02: http://www36.zippyshare.com/v/74236524/file.html
part 03: http://www36.zippyshare.com/v/66182229/file.html
part 04: http://www36.zippyshare.com/v/39267612/file.html
part 05: http://www36.zippyshare.com/v/30461989/file.html
part 06: http://www36.zippyshare.com/v/31599704/file.html
part 07: http://www36.zippyshare.com/v/5425333/file.html
part 08: http://www36.zippyshare.com/v/29508770/file.html
part 09: http://www36.zippyshare.com/v/61295316/file.html
part 10: http://www36.zippyshare.com/v/35385670/file.html
part 11: http://www36.zippyshare.com/v/79392045/file.html
part 12: http://www36.zippyshare.com/v/15300669/file.html
part 13: http://www66.zippyshare.com/v/16381003/file.html
part 14: http://www66.zippyshare.com/v/75445442/file.html
part 15: http://www66.zippyshare.com/v/29842144/file.html
part 16: http://www66.zippyshare.com/v/98702084/file.html
part 17: http://www66.zippyshare.com/v/81462536/file.html
part 18: http://www33.zippyshare.com/v/58652542/file.html
part 19: http://www66.zippyshare.com/v/77564686/file.html
part 20: http://www66.zippyshare.com/v/92246806/file.html
part 21: http://www66.zippyshare.com/v/41222490/file.html
part 22: http://www66.zippyshare.com/v/15896816/file.html
 
 
 
DOWNLOAD VIA TORRENT
 
 
MAGNET LINK

Deep House Session Vol 14 (By Junior D)

front_zps2ff2e16c

 

 

 

Deep House Session Vol 14 (By Junior D)

 

 

 

 

TRACKLIST

 

01. Claptone – Cream (Original Mix)

02. Discorocks Feat. Naika – Love You Inside Out

03. Karen Souza – Get Lucky (5Prite Remix)

04. Weiss (Uk) – My Sister (Original Mix)

05. Claptone – United (Original Mix)

06. Tomcraft – Loneliness (Prohorov Remix)

07. Purple Disco Machine – Let It Whip (Original Mix)

08. Hot Since 82 – Don’t Be Afraid (Original Mix)

09. Shadow Child – So High (Hot Since 82 Remix)

10. Weiss (Uk) – The Guitar Man (Original Mix)

11. Jon Cutler – It’s Yours (Nice7 Remix)

12. Sonique – It Feels So Good (Hi Def Bootleg)

13. Manuel De La Mare, Luigi Rocca – Terra (Original Mix)

14. Dave Spritz Darko De Jan – Girl I Know (Original Mix)

 

 

LINK :

 

http://www44.zippyshare.com/v/99058871/file.html

ACOUSTICA VOL.7 ( By Dj Kosta )

 

BACKFROND

 

 

ACOUSTICA VOL.7 ( By Dj Kosta )

 

 

 

 

TRACKLIST

 

01.Couture Chic – Eye Of The Tiger
02.Jazz And Floyd – Another Brick in the Wall
03.Liza Everson – Don’t Look Any Further
04.Ronnie Walsh – Lady
05.Sade – Lovers Rock
06.The Blue Hammock – Rosanna
07.Consumable Electronica – Hotel California
08.Morcheeba – Blood Like Lemonade
09.Flamingo – Dancing Barefoot
10.Smooth Deluxe – Medina
11.Marianne Faithfull – So Sad
12.Esteve – Cool Bar
13.Christoph Spendel – I Love Your Smile
14.Mercer & Gissal – My Friend
15.Lartist – Porcelain
16.Boy Tedson – Killing Time
17.Cajun – Bamboleo
18.Sussan Kameron – Tom’s Diner
19.Smooth Jazz Tribute – La Tortura
20.D.J. In The Night – Foto Viva
21.Cool Sensation – Sunshine on a Rainy Day
22.Schiller Mit Kim Sanders- Let Me Love You
23.Relounge – Fast Love
24.No Angels – Venus
25.Ely Bruna – I’m Your Baby Tonight
26.Bobby Deep – Angel
27.The Relaxing Smooth Jazz All-Stars – Smooth Jazz Is as Smooth Jazz Does
28.Aqua Mundi – Sweet Fragrances
29.Hotel Buena Vida – Eye In The Sky
30.Sandra – What Is It About Me
31.Scott Bradlee & Postmodern Jukebox – Wake Me Up
32.Scott Bradlee & Postmodern Jukebox – Blurred Lines
33.Groovy Waters – Set Fire to the Rain
34.Baghira – Happy Piano
35.Solanos – Water and Salt
36.Les Liaisons Dangereuses – Against Oblivion

 

 

( Mixed & Compiled By Dj Kosta )

 

 

LINK  :

 

 http://www13.zippyshare.com/v/29556605/file.html

 

COVERS & INFO :

 

http://www57.zippyshare.com/v/70927963/file.html

PASSION MIX ( By Dj Kosta )

 

 

 

 

 

 

 

 

PASSION MIX ( By Dj Kosta )

 

 

TRACKLIST

 

 

01.Barry White – It’s Only Love
02.Bill Withers – Ain’t No Sunshine
03.Hi Gloss – You ‘ll Never Know
04.Toto – Georgy Porgy
05.Bill Withers – Lovely Day
06.Andy Gibb – Shadow Dancing
07.Stephanie Mills – Whatcha Gonna Do With My Lovin
08.Kool & The Gang – Too Hot
09.Driza Bone – Real Love
10.France Joli – Gonna Get Over You
11.Barry White – Can t Get Enough of Your Love, Babe
12.George Benson – Give Me The Night
13.Patrice Rushen – Forget Me Nots
14.Roberta Flack & Donny Hathaway – Back Together Again
15.Marvin Gaye – Sexual Healing
16.Cheryl Lynn – Got To Be Real
17.Traks – Long Train Running
18.Simply Red – Come To My Aid
19.Terence Trent D’Arby – Sign Your Name
20.Guthrie – It Should Have Been You
21..Oliver Cheatham – Get Down Saturday Night
22.Barrabbas – Woman
23.Bob Marley – Is This Love
24.Delegation – You And I
25.Stevie Wonder – Superstition
26.Herb Alpert – Rise
27.Jack Jones – The Love Boat
28.Alec R. Costandinos – Americana
29.Sade – Smooth Operator
30.Vaya Con Dios – Stay With Me
31.Tony Pacino – Love Me More
32.Lou Rawls – You’ll Never Find
33.Tracy Chapman – Give Me One Reason
34.Jason McKnight – Lady (From Another Galaxy)

 

 

( Mixed & Compiled By Dj Kosta )

 

 

LINK :

 

 

http://www57.zippyshare.com/v/82632337/file.html

 

 

COVERS & INFO’S :

 

 

http://www14.zippyshare.com/v/77382033/file.html

DJ POL465 – Enjoy The Classics Vol. 3

DJ POL465 – Enjoy The Classics Vol. 3

                              AUDIO ONLY

 

 

00. Intro
01. Wham! – Everything She Wants
02. Roy Orbison – You Got It
03. Cher – The Shoop Shoop Song (It’s In His Kiss)
04. Barry Manilow – Copacabana (At the Copa)
05. Barrabas – On The Road Again
06. Gloria Estefan & Miami Sound Machine – Dr. Beat
07. Freeez – I.O.U.
08. Rick James – Give It To Me Baby
09. Sister Sledge – We Are Family
10. Whitney Houston – How Will I Know
11. Rose Laurens – Africa
12. Eartha Kitt – Where Is My Man
13. Matia Bazar – Ti Sento
14. Ivan – Fotonovela
15. Laid Back – Bakerman
16. Daryl Hall & John Oates – Private Eyes
17. Johnny Hates Jazz – Shattered Dreams
18. Jason Donovan – Too Many Broken Hearts
19. Debbie Gibson – Shake Your Love
20. Bryan Ferry – Let’s Stick Together
21. Arrow – Hot Hot Hot
22. Gloria Estefan & Miami Sound Machine – Conga
23. Eddy Grant – Boys In The Street
24. Cyndi Lauper – Girls Just Want To have Fun
25. Lipps Inc. – Funkytown
26. Raffaella Carra – A Far L’amore Comincia Tu
27. Jermaine Stewart – We Don’t Have To, Take Our Clothes Off To Have A Good Time
28. Gary Low – You’re a Danger
29. Tom Jones and Mousse T – Sexbomb
30. Belinda Carlisle – La luna
31. Roxette – Dangerous
32. 10,000 Maniacs – Because The Night (Live)
33. The Archies – Sugar Sugar
34. Beatles – Twist and Shout
35. Phil Collins – Sussudio
36. Sheryl Lee Ralph – In The Evening
37. Evelyn Thomas – High Energy
38. Camouflage – The Great Commandment
39. Martika – I Feel The Earth Move
40. Pet Shop Boys – Always On My Mind
41. Irene Cara – Flashdance (What A Feeling)
42. Mandy Smith – Positive Reaction
43. Gloria Estefan & Miami Sound Machine – 1-2-3
44. The Cutting Crew – (I Just) Died In Your Arms Tonight
45. Suzanne vega – Luka
46. F.R. Davids – Words
47. Shania Twain – That Don’t Impress Me Much
48. ABC – When Smokey Sings
49. Donna Summer – I Feel Love
50. Bananarama – Venus
51. The Drapers – Yakety Yak
52. Boney M – Rasputin
53. Village People – Y.M.C.A
54. Smokie – I’ll meet you at midnight
55. Smokie – Living Next Door To Alice
56. Men at Work – Who Can It Be Now
57. Roy Orbison – Oh, Pretty Woman
58. Prince – When Doves Cry
59. Midge Ure – If I Was
60. Mike Oldfield – Moonlight Shadow
61. Billy Joel – Uptown Girl
62. The Outfield – Your Love
63. Yazoo – Nobody’s Diary
64. Public Image Ltd. – This Is Not A Love Song
65. Black – Everything’s Coming Up Roses
66. Belinda Carlisle – Leave a light on
67. A-Ha – The Sun Always Shines On TV
68. New Order – Blue Monday ’88
69. Tiffany – I Think We’re Alone Now
70. Eddy Grant – Gimme Hope Jo’anna
71. Lynn Anderson – Rose Garden
72. The Shorts – Comment Ca Va
73. Sacha Distel – Monsieur Cannibal
74. Philip Oakey & Giorgio Moroder – Together In Electric Dreams
75. Falco – Vienna Calling
76. Buggles – Video Killed The Radio Star
77. Boney M – Belfast
78. Irene Cara – Fame
79. Trans X – Living On Video
80. Philip Bailey And Phil Collins – Easy Lover
81. Sylvester – You Make Me Feel (Mighty Real)
82. Wham! – I’m Your Man
83. Trio – Da Da Da
84. Rick James – Super Freak
85. MC Hammer – U Can’t Touch This
86. Womack & Womack – Teardrops
87. Danny Wilson – Mary’s Prayer
88. Ultravox – Hymn
89. David Bowie – China Girl
90. Lionel Richie – Dancing On The Ceiling
91. The Communards – Never Can Say Goodbye
92. The Great Disco Bouzouki Band – Disco bouzuki

  • Format : MPEG Audio
  • File size : 173 MiB
  • Duration : 1h 15mn
  • Overall bit rate mode : Constant
  • Overall bit rate : 320 Kbps
  • Format version : Version 1
  • Format profile : Layer 3
  • Mode : Joint stereo
  • Duration : 1h 15mn
  • Bit rate mode : Constant
  • Bit rate : 320 Kbps
  • Channel(s) : 2 channels
  • Sampling rate : 44.1 KHz
  • Compression mode : Lossy
  • Stream size : 173 MiB (100%)

logo

mega.svg

 

 

POP YEARMIX 2013 ( By Dj Kosta )

 

 

POP YEARMIX 2013 ( By Dj Kosta )

 

 

 

 
TRACKLIST

 

00.Intro
01.Bruno Mars – When I Was Your Man
02.Niley Cyrus – We Cant Stop
03.Taylor Swift Feat.Ed Sheeran – Everything Has Changed
04.Karmin – Acapella
05.Lorde – Royals
06.Justin Timberlake – Mirrors
07.Macklemore Feat.Mary Lambert – Same Love
08.Travie Mcco feat.Jason Mraz – Rough Water
09.Demi Lovato – Made In USA
10.Katy Perry – Roar
11.Imagine Dragons – Demons
12.Sammy Adams Feat.Mike Posner – L.A. Story
13.Nelly Feat.Nicki Minaj & Pharrell – Get Like Me
14.Macklemore & Ryan Lewis – Thirft Shop
15.Eminem – Berzerk
16.P!nk Feat.Lily Allen – True Love
17.Major Lazer – Bubble Butt
18.Lady Gaga Feat.R kelly – Do What U Want
19.Sean Kingston Feat.Chris Brown & Wiz Khalifa – Beat It
20.Drake Feat.Majid Jordan – Hold On Were Going Home
21.Daft Punk Feat.Pharrell – Lose Yourself To Dance
22.Jason Derulo Feat.2 Chainz – Talk Dirty
23.Justin Timberlake – Suit & Tie
24.Chris Brown – Fine China
25.Chris Brown Feat.Nicki Minaj – Love More
26.Justin Timberlake – Take Back The Night
27.Eminem Feat.Rihanna – The Monster
28.Bruno Mars – Treasure
29.Nelly – Hey Porsche
30.Daft Punk Feat.Pharrell Williams – Get Lucky
31.Macklemore & Ryan Lewis – White Walls
32.Capital Cities – Safe and Sound
33.Maroon 5 – Love Somebody
34.Miley Cyrus – Wrecking Ball
35.Robin Thicke Feat.T.I. & Pharrell – Blurred Lines
36.Onerepublic – Counting Stars
37.Avicii – Wake Me Up
38.Duke Dumont AME – Need U 100
39.Avicii – Hey Brother
40.Calvin Harris Feat.Ellie Goulding – I Need Your Love
41.Bakermat – Bakermat Zomer
42.Lana Del Ray – Summertime Sadness
43.Icona Pop Feat.Charli XCX – I Love It
44.Neyo Feat.Britney Spears – Forever Now
45.Lady Gaga – Venus
46.Kesha – Cmon
47.Dfands vs Ceresia & Ron Carroll – Bang Bang
48.Nicki Minaj – Va Va Voom
49.Calvin Harris Feat.Ayah Marar – Thinking About You
50.Carlprit – Fiesta
51.Britney Spears – Work Bitch
52.Lara Loft Feat.Stan1 – Listen To The Saxophone
53.Inna – Be My Lover
54.Selena Gomez – Slow Down
55.Pulsedriver – Cambodia
56.Martin Solveig & The Cataracs Feat.Kyle – Hey Now
57.Mike Candys Feat.Evelyn & Tony T – Everybody
58.Criminal Vibes – Calabria
59.Justice Crew – Boom Boom
60.Morgan Page Feat.The Outfield – Your Love
61.Selda – Are You Ready To Fly
62.Bingo Players Feat.Far East Movement – Get Up
63.Hardwell – Apollo
64.Sebastian Ingrosso Tommy Trash & John Martin – Reload
65.Naughty Boy – La La La
66.Calvin Harris Feat.Temper – Drinking From The Bottle
67.DJ Dark & Shidance Feat.Raisa – Da Bomb
68.Bang La Decks – Kuedon (Obsession)
69.Bang La Decks – Utopia
70.Showtek Feat.We Are Loud & Sonny Wilson – Booyah
71.Martin Garrix – Animals
72.Dvbbs & Bourgeous – Tsunami
73.Will.I.Am Feat.Justin Bieber – That Power
74.Avicii & Nicky Romero – I Could Be The One
75.Will.I.Am Feat.Britney Spears – Scream and Shout
76.Selena Gomez – Come & Get It
77.Pitbull Feat.Christina Aguilera – Feel This Moment
78.Arash Feat.Sean_Paul – She Makes Me Go
79.Lady Gaga – Applause
80.Outro

 

 

( Mixed & Compiled By Dj Kosta )

 

 

LINKS :

 

http://www63.zippyshare.com/v/96312742/file.html

 

 

COVERS + INFO :

 

http://www69.zippyshare.com/v/64419024/file.html