FOLLOW US ON FACEBOOK

           images

Scratch !

Visitors

DJ POL465 – DJ’s Party (δεύτερο ημίωρο)

DJ POL465 – DJ’s Party 2 (δεύτερο ημίωρο)

01 Θάνος Καλλίρης – Καταστροφή μου
02 Αδάμ Και Μαρία – Αλήτικη Ζωή
03 Αλέξια – Το ξέρω το ξέρω
04 Σαμπρίνα – Γειά Σου
05 Πασχάλης – Παραπονάκι Μου Γλυκό
06 Μαντώ – Σώμα με σώμα
07 Γιάννης Μηλιώκας – Απόψε θα γουστάρουμε παρέα
08 Γιάννης Σαββιδάκης – Είμαι Θύμα
09 Ευρυδίκη – Κάποιον άλλον
10 Μαντώ – Ραντεβού
11 Κωστας Χαριτοδιπλωμένος – Τουρτα σοκολάτα
12 Σοφία Αρβανίτη – Επανάσταση
13 Ριφιφί – Μη φοβάσαι
14 Διονύσης Σχοινάς – Τώρα είναι αργά
15 Διονύσης Σχοινάς – Τι τρελά μου ζητάς
16 Εκείνος και Εκείνος – Ταξιδιάρικη καρδιά
17 O.P.A – Η καρδιά μου
18 Μιχάλης Ρακιντζής – Πάει Πάει
19 VIPS – Είναι ψέμα
20 Σοφία Αρβανίτη – Ξύλινο πάτωμα
21 Mαντω – Αγκαλίτσες και φιλάκια
22 Πωλίνα – Όλοι τα παίρνουνε
23 Αλέξια – Αλλάξαμε θέση
24 Γιάννης Μηλιώκας – Αλλού τρως
25 Μαντώ – Δώσε μου ένα φιλί
26 Κώστας Χαριτοδιπλωμένος – Ζωή και κότα
27 Αρλέτα – Σερενάτα
28 Γιάννης Γιοκαρίνης – Τίποτα δεν είναι απλό
29 Κωνσταντίνα – Πιο πολύ
30 Ευρυδίκη – Ζηλιάρης ουρανός
31 Μπέσσυ Αργυράκη – Σκόρπια φιλιά (A far l’amore comincia tu)
32 Πασχάλης – Copacabana
33 Πωλίνα – Πάμε για τρέλες στις Σεϋχέλλες
34 Μαντώ – Αυτό Το Καλοκαίρι
35 Μιχάλης Ρακιντζής – Μωρό μου φάλτσο
36 Πασχάλης – Κατερίνα Κατερινάκι
37 Γιάννης Μηλιώκας – Ερωτεύτηκα
38 Πωλίνα – Χορεύω
39 Αλέξια – Έλα Μια Νύχτα
40 Κώστας Μπίγαλης – Το καπελάκι
41 Μπίγαλης Κώστας – Boeing 747
42 Βίκυ Χαρίτου – Νύχτες στην Μύκονο

 

Audio
Format : MP3
Time : 33mn 57s
Bit rate : 320 Kbps
Channel(s) : 2 channels
Sampling rate : 44.1 KHz
Stream size : 77.7 MiB (100%)

SOON…

Inspirations Of Deep (Deep House Session Vol 20 By Junior D )

 

Graphic2_zpsisuvbcwn (1)

 

Inspirations Of Deep (Deep House Session Vol 20 By Junior D)

 

 

TRACKLIST

 

01. Tricky – Time To Dance (Maya Jane Coles Remix)
02. Luis Leon & Memo Insua – Lost Secrets (Original Mix)
03. Booka Shade – Love Drug (Maya Jane Coles Remix)
04. Roni Iron – Deeper (Original Mix)
05. Nikko Sunset – Baja (Aris Psychas Remix)
06. Mickey – Holding Hands (Original Mix)
07. Miguel Migs – Dance And Clap (Soul Bounce Mix)
08. Metodi Hristov – Breaking News (Original Remix)
09. Dino Lenny – Waiting For The Daylight (Dino Lenny Remix)
10. V-Sag Feat Anna Maria X – That Golden Dress (Original Mix)
11. Rene Amesz – Away (Original Mix)
12. Jame Moorfield – The Whurk (Original Mix)
13. Mario Aureo – Going Back (Daniel Shepherd Remix)
14. Spieltape – Bag Of Bones (Nikitin Remix)
15. Central Rodeo – Let Me Tell (Original Mix)

 

 

LINK:

 
http://www86.zippyshare.com/v/Y38yoBYH/file.html

ONE NIGHT IN DISCOTHEQUE ( By Dj Kosta )

Graphic1

Graphic2

 

 

ONE NIGHT IN DISCOTHEQUE ( By Dj Kosta )

 

 
TRACKLIST

 
01.Intro
02.Alphaville – Sounds Like A Melody
03.Alphaville – Big In Japan
04.Stretch – Why Did You Do It
05.Madonna – La Isla Bonita
06.DJ BoBo – Everybody
07.Soul II Soul – Back To Life
08.Captain Sensible – Wot
09.Sandra – Maria Magdalena
10.Bee Gees – Staying Alive
11.Timex Social Club – Rumors
12.Diana Ross – Upside Down
13.Indeep – Last Night A Dj Saved My Life
14.Modern Talking – Brother Louie
15.Herbie Hancock – Rockit
16.Rick Astley – Together Forever
17.Billy Ocean – Caribbean Queen
18.Duran Duran – Union Of The Snake
19.Michael Cretu – Samurai
20.C.C Catch – Cause You Are Young
21.The Human League – Don’t You Want Me
22.Kool And The Gang – Fresh
23.Modern Talking – Cheri Cheri Lady
24.Taylor Dayne – Tell It To My Heart
25.Bad Boys Blue – You’re A Woman
26.Barrabas – On The Road Again
27.Eartha Kitt – Where Is My Man
28.Donna Summer – Hot Stuff
29.Sandra – In The Heat Of The Night
30.F.R David – Words
31.Ottawan – Hands Up
32.Gazebo – Masterpiece
33.Irene Cara – Flashdance
34.Eurythmics – Sweet Dreams
35.Evelyn Thomas – High Energy
36.Duran Duran – A View To A Kill
37.Yazoo – Don’t Go
38.Salt ‘N’ Pepa – Push It
39.Gary Low – You Are A Danger
40.Righeira – Vamos A La Playa
41.Big Alice – Miss You
42.Sylvester – Do Ya Wanna Funk
43.Weather Girls – Its Raining Men
44.Irene Cara – Fame

 

 

( Mixed & Compiled By Dj Kosta )

 

 

 

 

LINK :
http://www29.zippyshare.com/v/w0BuRexw/file.html

 
COVERS + TRACKLIST :
http://www46.zippyshare.com/v/UdNVAnK8/file.html

POP YEARMIX 2015 ( By Dj Kosta )

front

back

 

POP YEARMIX 2015 ( By Dj Kosta )

 

 

TRACKLIST

00.Intro
01.MKTO – Bad Girls
02.Rita Ora Feat.Chris Brown – Body On Me
03.X Ambassadors – Renegades
04.Shaggy Feat.Mohombi – I Need Your Love
05.Nicky Jam & Enrique Iglesias – El Perdon
06.Wiz Khalifa Feat.Charlie Puth – See You Again
07.Nick Jonas – Chains
08.Flo Rida – My Home
09.Serani – No Games
10.Taylor Swift – Style
11.Fetty Wap Feat.Remy Boyz – 679
12.Nelly feat.Jeremih – The Fix
13.Taylor Swift – Blank Space
14.Pia Mia Feat.Chris Brown & Tyga – Do It Again
15.Dawin Feat.Silento – Dessert
16.Major Lazer & Dj Snake Feat.Mo – Lean On
17.Fifth Harmony Feat.Kid Ink – Worth It
18.Maroon 5 – This Summer’s Gonna Hurt
19.Jason Derulo Feat.Jennifer Lopez – Try Me
20.Sia – Alive
21.Sam Smith – Like I Can
22.Jason Derulo – Cheyenne
23.Justin Bieber – Sorry
24.Baby K Feat.Giusy Ferreri – Roma/Bangkok
25.J. Balvin – Ginza
26.Nick Jonas – Levels
27.Rihanna Feat.Kanye West – Four Five Seconds
28.Rihanna – Bitch Better Have My Money
29.Macklemore & Ryan Lewis – Downtown
30.Snoop Dogg Feat.Charlie Wilson – Peaches N’ Cream
31.Charlie Puth Feat.Meghan Trainor – Marvin Gaye
32.Alvaro Soler Feat.Jennifer Lopez – El Mismo Sol
33.Pitbull Feat.Chris Brown – Fun
34.Jason Derulo – Want To Want Me
35.Felix Jaehn Feat.Jasmine Thompson – Aint Nobody
36.Flo Rida Feat.Robin Thicke – I Don’t Like It,I Love It
37.Robin Thicke Feat.Nicki Minaj – Back Together
38.Calvin Harris Feat.Haim – Pray To God
39.Ne Yo – Coming With You
40.Adele – Hello
41.Adam Lambert – Ghost Town
42.James Newton Howard Feat.J.Lawrence – The Hanging Tree
43.The Weeknd – Can’t Feel My Face
44.OMI Feat.Samantha J – Cheerleader
45.OMI – Hula Hoop
46.Yolanda Be Cool & DCUP – Soul Makossa
47.Maroon 5 – Feelings
48.David Guetta Feat.Sia & Fetty Wap – Bang My Head
49.Lost Frequencies Feat.Janieck Devy – Reality
50.Blonde Feat.Alex Newell – All Cried Out
51.Pitbull Feat.Ne Yo – Time Of Our Lives
52.Calvin Harris & Disciples – How Deep Is Your Love
53.David Zowie – House Every Weekend
54.Joe Stone Feat.Montell Jordan – The Party
55.Sigala – Easy Love
56.SNBRN Feat.Andrew Wyatt – Beat The Sunrise
57.Ellie Goulding – Love Me Like You Do
58.Justin Bieber – What Do You Mean
59.Kygo Feat.Conrad Sewell – Firestone
60.Lost Frequencies – Are You With Me
61.Martin Solveig & GTA – Intoxicated
62.Clean Bandit Feat.Jess Glynne – Real Love
63.O.T Genasis – CoCo
64.Lil Kleine Feat.Ronnie Flex – Drank & Drugs
65.Icona Pop – Emergency
66.David Guetta Feat.Nicki Minaj & Afrojack – Hey Mama
67.Avicii – Waiting For Love
68.Tony Junior Feat.Mr. Polska – Love Somebody
69.David Guetta & Showtek – Sun Goes Down
70.Zedd Feat.Selena Gomez – I Want You To Know
71.Zedd Feat.Jon Bellion – Beautiful now
72.Martin Garrix Feat.Usher – Don’t Look Down
73.Deorro x Chris Brown – Five More Hours
74.Mark Ronson Feat.Bruno Mars – Uptown Funk
75.Lil’ Jon – Get Loose
76.Garmiani Feat.Sanjin – Jump & Sweat
77.Feder Feat.Lyse – Goodbye
78.Sam Smith – Writing’s On The Wall (from Spectre)
79.Calvin Harris & Ellie Goulding – Outside
80.Armin Van Buuren Feat.Mr. Probz – Another You
81.Flo Rida Feat.Sage The Gemini – GDFR
82.Sheppard – Geronimo
83.Afrojack Feat.Mike Taylor – SummerThing
84.Eva Simons Feat.Konshens – Policeman
85.Silento – Watch Me
86.Axwell x Ingrosso – Sun Is Shining
87.Timmy Trumpet Feat.Savage – Freaks
88.AronChupa – I’m An Albatraoz
89.Alfons – Ganjaman

 

( Mixed & Compiled By Dj Kosta )

 

LINK  ( MP3 + Covers + Text ) :

http://www43.zippyshare.com/v/j4k5dhn7/file.html

RETRO CLASSIC DANCE MIX ( By Dj Kosta )

Graphic3

Graphic1

 

 

 

RETRO CLASSIC DANCE MIX ( By Dj Kosta )

 

 
TRACKLIST

 

01.Intro
02.Oran Juice Jones – Rain
03.Average White Band – Pick Up The Pieces
04.Eagles – One Of These Nights
05.Eric Clapton – Cocaine
06.Third World – Try Jah Love
07.The Whispers – And The Beat Goes On
08.James Brown – Living In America.
09.Incognito Feat.Jocelyn Brown – Always There
10.Steve Miller Band – Serenade
11.Tom Petty & The Heartbreakers – You Got Lucky
12.Terence Trent Darby – Dance Little Sister
13.The Commitments – Mustang Sally
14.Deep Purple – Smoke On The Water
15.Supertramp – The Logical Song
16.The Gap Band – Burn Rubber
17.Joe Cocker – Unchain My Heart
18.Doobie Brothers – Long Train Running
19.Club House – Do It Again
20.James Brown – Get Up Offa That Thing
21.Chic – Le Freak
22.Paul McCartney & Michael Jackson – Say Say Say
23.Joan Jett & The Blackhearts – I Hate Myself For Loving You
24.The Four Tops – Reach Out I’ll Be There
25.Pet Shop Boys – West End Girls
26.Michael Jackson – Wanna Be Startin’ Somethin’
27.Bee Gees – You Should Be Dancing
28.Christopher Cross – Ride Like The Wind
29.Shocking Blue – Venus
30.Jefferson Airplane – Somebody To Love
31.Mike Oldfield – Moonlight Shadow
32.Santana – Oye Como Va
33.Joe Cocker – Talking Back To The Night
34.Sniff ‘n’ The Tears – Driver’s Seat

 

 
( Mixed & Compiled By Dj Kosta )

 

 
LINK :

http://www22.zippyshare.com/v/JYMGd0Wa/file.html

COVERS + TRACKLIST :

http://www5.zippyshare.com/v/YJgo0gpD/file.html

DJ POL465 – ENJOY THE CLASSICS Vol. 4 (VIDEOMIX)

DJ POL465 – Enjoy The Classics 4 (Videomix)

Tracklist

000 Intro
001 Donna Summer – She Works Hard For The Money
002 Village People – Macho Man
003 Donna Summer & Barbra Streisand – No More Tears
004 ABBA – Does Your Mother Know
005 Madonna – Material Girl
006 Cyndi Lauper – She Bop
007 Eddie Murphy – Party All The Time
008 Madonna – Dress You Up
009 The Weather Girls – It’s Raining Men
010 Billy Idol – Mony Mony
011 Patrick Hernandez – Born To Be Alive
012 ABBA – Mamma Mia
013 Elton John – I Don’t Wanna Go On With You Like That
014 Beatles – A Hard Day’s Night
015 Bryan Adams – Summer Of ’69
016 Huey Lewis & The News – Hip to Be Square
017 Michael Jackson – Beat It
018 Dschinghis Khan – Dschinghis Khan
019 Amii Stewart – Knock On Wood
020 Soft Cell – Tainted Love
021 Starship – We Built This City
022 Spandau Ballet – Gold
023 Mike Oldfield & Anita Hegerland – Innocent
024 Roxette – The Big L.
025 Robert Palmer – Simply Irresistible
026 Billy Joel – We Didn’t Start The Fire
027 The Blues Brothers – Gimme Some Lovin’
028 Lulu & The Luvvers – Shout
029 Iggy Pop – Real Wild Child
030 Eddy Grant – Romancing The Stone
031 Bob Marley & The Wailers – Iron Lion Zion
032 Style Council – Shout To The Top
033 The Animals – The Night
034 OMD – Enola Gay
035 A Flock of Seagulls – I Ran (So Far Away)
036 Styx – Mr. Roboto
037 Bruce Springsteen – Dancing In The Dark
038 Toni Basil – Mickey
039 James Brown – I Got You (I Feel Good)
040 Beatles – Love Me Do
041 Paul Anka – Diana
042 Beatles – She Loves You
043 Little Richard – Lucille
044 Glenn Frey – The Heat Is On
045 George Harrison – Got My Mind Set On You
046 The Knack – My Sharona
047 The Swinging Blue Jeans – Hippy Hippy Shake
048 Shakin’ Stevens – Shirley
049 Showaddywaddy – Under The Moon Of Love
050 The Chordettes – Lollipop
051 Pat Boone – Speedy Gonzales
052 Wham! – The Edge Of Heaven
053 Queen – Crazy Little Thing Called Love
054 Beatles – All My Loving
055 Fat Boys & Chubby Checker – The Twist (Yo, Twist)
056 Madness – One Step Beyond
057 Chris Montez – Let’s Dance
058 Beach Boys – Surfin’ U.S.A.
059 Bill Haley And His Comets – See You Later Alligator
060 Little Richard – Good Golly, Miss Molly
061 Eddie Cochran – Summertime Blues
062 Jerry Lee Lewis – Great Balls Of Fire
063 Wham! – Wake Me Up Before You Go-Go
064 Fine Young Cannibals – Good Thing
065 Nancy Sinatra – These Boots Are Made For Walking
066 Elvis Presley – All Shook Up
067 Del Shannon – Runaway
068 Paul McCartney – Hope Of Deliverance
069 Blondie – Maria
070 Los Lobos – La Bamba
071 John Travolta – Grease Lightning
072 Robert Palmer – Johnny & Mary
073 Kim Wilde – Kids In America
074 Michael Sembello – Maniac
075 Pia Zadora & Jermaine Jackson – When The Rain Begins To Fall
076 OMD – Electricity
077 The Monkees – I’m A Believer
078 Buster Poindexter – Hit The Road Jack
079 Ray Charles – Hit The Road Jack
080 Kid Creole And The Coconuts – The Lifeboat Party
081 Fire Inc. – Nowhere Fast
082 Cure – Boys Don’t Cry
083 Shakin’ Stevens – Marie, Marie
084 Electric Light Orchestra – Rock & Roll Is King
085 Kenny Loggins – Footloose
086 Jackie Wilson – Reet Petite
087 The Everly Brothers – Bye Bye Love
088 Elvis Presley – Don’t Be Cruel
089 Sister Sledge – Frankie
090 Racey – Runaround Sue
091 Beach Boys – Barbara Ann
092 Elvis Presley – Blue Suede Shoes
093 Beatles – Can’t Buy Me Love
094 The Ventures – Hawaii-Five O
095 Dire Straits – Walk Of Life
096 A-ha – Take on Me
097 Daryl Hall & John Oates – Maneater
098 Bucks Fizz – Making Your Mind Up
099 Stevie Wonder – Part Time Lover
100 Denise Lasalle – My Toot Toot
101 Lou Bega – Mambo No. 5 (A Little Bit Of…)
102 Ricky Martin – Livin’ La Vida Loca
103 Don Henley – The Boys Of Summer
104 Gloria Estefan – Bad Boy
105 Eddie Cochran – C’mon Everybody
106 Pointer Sisters – I’m So Excited
107 Creedence Clearwater Revival – Bad Moon Rising
108 Billy Joel – The River Of Dreams
109 Simon & Garfunkel – Mrs. Robinson
110 David Bowie – Modern Love
111 Billy Joel – Tell Her About It
112 Two Of Us – Blue Night Shadow
113 Matt Bianco – Yeh Yeh
114 Pat Benatar – Love Is A Battlefield
115 Kim Wilde – Chequered love
116 The Champs – Tequila
117 Bill Haley And His Comets – Rock Around The Clock
118 Little Richard – Tutti Frutti
119 Little Richard – Long Tall Sally
120 Elvis Presley – Hound Dog
121 Touch & Go – Straight To… Number One
122 Tom Jones – It’s Not Unusual
123 Buddy Holly & The Crickets – Oh, Boy!
124 The Everly Brothers – Wake Up Little Susie
125 Beatles – Help!
126 Bananarama – Help!
127 Rembrandts – I’ll Be There For You
128 Jackie Wilson – Higher And Higher
129 The Blues Brothers – Everybody Needs Somebody To Love
130 Shakin’ Stevens – This Ole House
131 Rocky Sharpe and The Replays – Shout! Shout! (Knock Yourself Out)
132 Phil Collins – You Can’t Hurry Love
133 Nena – 99 Red Balloons
134 Bangles – Walk Like An Egyptian
135 Pretenders – Don’t Get Me Wrong
136 Pointer Sisters – Neutron Dance
137 Dexy’s Midnight Runners – Come On Eileen
138 Katrina And The Waves – Walking On Sunshine
139 John Travolta & Olivia Newton John – You’re The One That I Want
140 John Travolta & Olivia Newton John – We Go Together

 

 

Format : MPEG-4
Format profile : Base Media / Version 2
File size : 3.99 GiB
Duration : 1h 30mn
Overall bit rate mode : Variable
Overall bit rate : 6 344 Kbps

Video
ID : 2
Format : AVC
Format/Info : Advanced Video Codec
Format profile : High@L5.0
Format settings, CABAC : Yes
Format settings, ReFrames : 9 frames
Duration : 1h 30mn
Bit rate mode : Variable
Bit rate : 5 955 Kbps
Maximum bit rate : 8 000 Kbps
Width : 1 440 pixels
Height : 810 pixels
Display aspect ratio : 16:9
Frame rate mode : Constant
Frame rate : 25.000 fps
Scan type : Progressive
Stream size : 3.75 GiB (94%)

Audio
Format : AAC
Duration : 1h 30mn
Bit rate mode : Constant
Bit rate : 384 Kbps
Original Channel count : 2 channels
Channel positions : Front: L R
Sampling rate : 48.0 KHz
Stream size : 248 MiB (6%)

 

mega.svg

 

TORRENT MAGNET LINK

        

TECH HOUSE SESSION VOL.3 ( BY JUNIOR D )

Graphic1_zpsj7qswmme

 

 

TECH HOUSE SESSION VOL.3 ( BY JUNIOR D )

 

 

TRACKLIST

 

 

01. Tinush – Planet X (Original Mix)
02. Hot Since 82 – Planes & Trains (Original Mix)
03. J. Acquaviva Ol. Giacomotto – Idiosyncrazy (Original Mix)
04. Marc Marzenit – Death Espiral (Original Mix)
05. Cari Golden & Bambook – Slip Away (Ol. Giacomotto Remix)
06. J Diesel – Outside In A Box (Olivier Giacomotto Remix)
07. Soul Avengerz – Feel It (Triantafillou,Freespirit Remix)
08. Rudimental – Right Here (Hot Since 82 Remix)
09. Leo Janeiro, Volkoder – Make It (Original Mix)
10. Hot Since 82 – Somebody Everybody (Ol. Giacomotto Remix)
11. Mihalis Safras – Freedom (Mat Joe Remix)
12. Harry Romero, Doorly – The Truth (Original Mix)
13. Alcatraz – Giv Me Luv (Nicole Moudaber Remix)

 

 

LINK :

 

http://www82.zippyshare.com/v/GXznv8tY/file.html

 

 

 

SOON ……

SUMMER HITMIX 2015 ( By Dj Kosta )

front

back

 

 

SUMMER HITMIX 2015 ( By Dj Kosta )

 

 
TRACKLIST

 
00.Intro
01.Flo Rida Feat.Sage The Gemini – GDFR
02.Wiz Khalifa Feat.Charlie Puth – See You Again
03.Ed Sheeran – Thinking Out Loud
04.Taylor Swift Feat.Kendrick Lamar – Bad Blood
05.David Guetta, Nicki Minaj & Afrojack – Hey Mama
06.Luniz – I Got Five On It (Sample)
07.Shaggy Feat.Mohombi – I Need Your Love
08.Enrique Iglesias Feat.Sean Paul – Bailando
09.Ace of Base – All That She Wants (Sample)
10.I Love Rock & Roll (loop)
11.David Guetta Feat.Sam Martin – Dangerous
12.Major Lazer & Dj Snake Feat.Mo – Lean On
13.Get Busy – Sean Paul (Sample)
14.DJ Snake & Lil Jon x DY & NJ – Turn Down For What (rmx)
15.Cypress Hill – Insane In The Brain (Sample)
16.Dillon Frances & DJ Snake – Get Low
17.Bob Marley – Could You Be Loved (rmx)
18.Rihanna Feat.Kanye West – Four Five Seconds
19.Britney Spears & Iggy Azalea – Pretty Girls
20.Suzanne Vega – Toms Dinner (rmx)
21.Eva Simons Feat.Konshens – Policeman
22.Eve – Who’s That Girl (rmx)
23.Cris Cab Feat.Tefa & Rihanna – Bitch I Am Englishman In New York
24.Tove Lo – Habits (Stay High)
25.Snoop Dogg – Peaches & Cream
26.Kurtis Blow – The Breaks (loop)
27.Eminem – Without Me
28.Indeep – Last Night A Dj Saved My Life (Sample)
29.Jason Derulo – Want To Want Me
30.Bruno Mars X Trinidad James – All Gold Funk
31.Queen – Another One Bites The Dust (Sample)
32.Flo-Rida Feat.Robin Thicke – I Don’t Like It, I Love It
33.(Everybody Dance Now) (loop)
34.Felix Jaehn Feat.Jasmine Thompson – Ain t Nobody (Loves Me Better)
35.Kygo Feat.Conrad – Firestone
36.JLO – Waiting For Tonight (Sample)
37.Ellie Goulding – Love Me Like You Do (rmx)
38.Calvin Harris Feat.HAIM – Pray To God
39.OMI Feat.Samantha J – Cheerleader
40.Blonde Feat.Alex Newell – All Cried Out
41.Mike Mago Dragonette – Outlines
42.Pitbull Feat.Ne-Yo – Time Of Our Lives
43.Pussycat Dolls Feat.Busta Rhymes vs Saccao – Don’t Cha (rmx)
44.I Need Your Love (loop)
45.Lost Frequencies – Are You With Me
46.Avicii – The Nights
47.Felix – Don’t You Want Me 2015
48.Martin Solveig x GTA – Intoxicated
49.Feder feat. Lyse – Goodbye
50.ZHU – Faded
51.Summer jam (loop)
52.Chawki Feat.Dr. Alban – It s My Life 2015
53.Avicii – Waiting For Love
54.Timmy Trumpet – Freaks
55.Zedd Feat.Selena Gomez – I Want You To Know

 

 
( Mixed & Compiled By Dj Kosta )

 

 

 

LINK MP3 :

 

http://www60.zippyshare.com/v/ITMxyqWv/file.html

 

COVERS + TRACKLIST

 

http://www87.zippyshare.com/v/COl1d6Sv/file.html

ACOUSTICA VOL.10 ( Reggae Edition ) By Dj Kosta

Frond AC-RE

Back AC-RE

 

 

ACOUSTICA VOL.10 ( Reggae Edition ) By Dj Kosta

 

 
TRACKLIST

 
01.Disclosure – lalalala
02.Robin Thicke Feat.Pharrell – Blurred Lines
03.Sia – Elastic Heart
04.Jay-Z & Kanye West – Niggas In Paris
05.Michael Jackson – Way You Make Me Feel
06.Peter Tosh – Johnny B. Goode
07.John Legend – All Of Me
08.Bob Marley & The Wailers – Three Little Birds
09.Big Mountain – Baby, I Love Your Way
10.Meghan Trainor – All About That Bass
11.Magic – Rude
12.Black Eyed Peas – I Got a Feeling
13.Rihanna – Unfaithful
14.Disclosure Feat.Sam Smith – Latch
15.Miley Cyrus – Wrecking Ball
16.Sia – Chandelier
17.Estelle Feat.Sean Paul – Come Over
18.Blackroom – Hotel California
19.Enya – Only Time
20.Shaggy – Boombastic
21.UB40 – I’ll Be Your Baby Tonight
22.Jason Derulo Feat.Snoop Dogg – Wiggle
23.Miley Cyrus – We Can’t Stop
24.Amy Winehouse – Rehab
25.Inner Circle – Bad Boys
26.Ed Sheeran – Thinking Out Loud
27.R.H.C.P – Scar Tissue
28.Capital Cities – Safe & Sound
29.Laid Back – Sunshine Reggae
30.Beyonce – XO
31.Rihanna – Rude Boy
32.50 Cent – Git It In
33.Oceana – Endless Summer

 

 

( Mixed & Compiled By Dj Kosta )

 

 

 

LINK :

 

http://www84.zippyshare.com/v/W7NBz3h7/file.html

 

COVERS + INFO :

 

http://www86.zippyshare.com/v/yWYmVdXg/file.html