FOLLOW US ON FACEBOOK

           images

Scratch !

Visitors

DJ POL465 – DJ’s Party 3 (τρίτο ημίωρο)

DJ POL465 – DJ’s Party 3 (τρίτο ημίωρο)

GREEK POP MIX

Tracklist:
01. Intro
02. Θάνος Καλλίρης – Φεύγω
03. Μαντώ – Τιμώρησέ με
04. Διονύσης Σχοινάς – Ποτέ
05. Πασχάλης Αρβανιτίδης – Παραδώσου Λοιπόν
06. Πασχάλης Αρβανιτίδης – Προϋπηρεσία
07. Πασχάλης Αρβανιτίδης – Φύγε σε παρακαλώ
08. Δάκης – Αλαλούμ
09. Κώστας Μπίγαλης – Μου δίνεις κάτι
10. Κώστας Χαριτοδιπλωμένος – Έτσι σε θέλω
11. Πασχάλης – Τζοάννα
12. Νίκος Καρβέλας – Σούζυ τσούζει
13. Πωλίνα – Κόντρες
14. Σάκης Ρουβάς – Έλα μου
15. Σάκης Μπουλάς – Κάτσε Στο Παπί Μου
16. Μιχάλης Ρακιντζής – Κρύψου στην αγκαλιά μου
17. Σοφία Αρβανίτη – Μόνη περπατώ
18. Σοφία Αρβανίτη – Σοκολατί
19. Σαμπρίνα – Γλυκιά
20. Νίκος Καρβέλας- Διαβολάκι
21. Αλέξια – Γράμματα
22. Σαμπρίνα – Μόνο τα δικά σου φιλιά
23. Θάνος Καλλίρης – Μην Τολμήσεις
24. Χρήστος Κυριαζής – Έλα μωράκι μου
25. Χρήστος Δάντης – Κάποιος σ’ αγαπάει
26. Σοφία Αρβανίτη – Και πιο καλά
27. Αλέξια – Αγάπη καλοκαιρινή
28. Αλέξια – Άσπρο Μαύρο
29. Λάμπης Λιβιεράτος & Θάνος Καλλίρης – Ο παλιός ειναι αλλιώς
30. Στέφανος Κορκολής – Και βγάλε το κραγιόν σου
31. Αλέξια – Θα σε περιμένω
32. Πωλίνα – Από τα FM
33. Κώστας Χαριτοδιπλωμένος – Το ξέρω
34. Outro

ONE NIGHT IN DISCOTHEQUE ( By Dj Kosta ) VIDEOEDIT BY STV

ONE NIGHT IN DISCOTHEQUE ( By Dj Kosta ) VIDEOMIX BY STV

 

 

 

TRACKLIST
01.Intro
02.Alphaville – Sounds Like A Melody
03.Alphaville – Big In Japan
04.Stretch – Why Did You Do It
05.Madonna – La Isla Bonita
06.DJ BoBo – Everybody
07.Soul II Soul – Back To Life
08.Captain Sensible – Wot
09.Sandra – Maria Magdalena
10.Bee Gees – Staying Alive
11.Timex Social Club – Rumors
12.Diana Ross – Upside Down
13.Indeep – Last Night A Dj Saved My Life
14.Modern Talking – Brother Louie
15.Herbie Hancock – Rockit
16.Rick Astley – Together Forever
17.Billy Ocean – Caribbean Queen
18.Duran Duran – Union Of The Snake
19.Michael Cretu – Samurai
20.C.C Catch – Cause You Are Young
21.The Human League – Don’t You Want Me
22.Kool And The Gang – Fresh
23.Modern Talking – Cheri Cheri Lady
24.Taylor Dayne – Tell It To My Heart
25.Bad Boys Blue – You’re A Woman
26.Barrabas – On The Road Again
27.Eartha Kitt – Where Is My Man
28.Donna Summer – Hot Stuff
29.Sandra – In The Heat Of The Night
30.F.R David – Words
31.Ottawan – Hands Up
32.Gazebo – Masterpiece
33.Irene Cara – Flashdance
34.Eurythmics – Sweet Dreams
35.Evelyn Thomas – High Energy
36.Duran Duran – A View To A Kill
37.Yazoo – Don’t Go
38.Salt ‘N’ Pepa – Push It
39.Gary Low – You Are A Danger
40.Righeira – Vamos A La Playa
41.Big Alice – Miss You
42.Sylvester – Do Ya Wanna Funk
43.Weather Girls – Its Raining Men
44.Irene Cara – Fame

 

 

info:

Video
Format : MPEG-4 Visual
Duration : 1h 19mn
Bit rate mode : Variable
Bit rate : 5 337 Kbps
Maximum bit rate : 18.1 Mbps
Width : 1 280 pixels
Height : 720 pixels
Display aspect ratio : 16:9
Frame rate mode : Variable
Frame rate : 25.000 fps
Minimum frame rate : 12.500 fps
Maximum frame rate : 25.000 fps
Color space : YUV
Chroma subsampling : 4:2:0
Bit depth : 8 bits
Scan type : Progressive
Compression mode : Lossy
Bits/(Pixel*Frame) : 0.232
Stream size : 2.98 GiB (96%)
Language : English
Audio
ID : 2
Format : AAC
Format/Info : Advanced Audio Codec
Format profile : LC
Codec ID : 40
Duration : 1h 19mn
Bit rate mode : Variable
Bit rate : 192 Kbps
Maximum bit rate : 202 Kbps
Channel(s) : 2 channels
Channel positions : Front: L R
Sampling rate : 48.0 KHz
Compression mode : Lossy
Stream size : 110 MiB (3%)
Language : English

 

mega.svg

SUMMER HITMIX 2016 ( By Dj Kosta )

frond summer 16

back summer 16

 

 

SUMMER HITMIX 2016 ( By Dj Kosta )

 

 

 

 

TRACKLIST

 

 

01.Enrique Iglesias Feat.Wisin – Duele El Corazon
02.Nick Jonas – Chains
03.Meghan Trainor – No
04.Rihanna – Kiss It Better
05.Sak Noel & Salvi – Trumpets
06.Willy William – Ego
07.Rihanna Feat.Drake – Work
08.Major Lazer & Dj Snake & Mo – Lean On
09.Justin Bieber – Love Yourself
10.Justin Bieber – Sorry
11.Mike Posner – I Took A Pill In Ibiza
12.Drake Feat.Wizkid & Kyla – One Dance
13.AlunaGeorge Feat.Popcaan – I’m In Control
14.The Pussycat Dolls – Buttons
15.Alan Walker – Faded
16.Sia Feat.Sean Paul – Cheap Thrills
17.Eva Simons – Policeman
18.Nicky Jam Feat.Enerique Iglesias – El Perdon
19.50 Cent – P.I.M.P.
20.Major Lazer Feat.Nyla & Fuse ODG – Light It Up
21.Global Deejays & Danny Marquez – T & Denise – Work
22.Enrique Iglesias – Bailando
23.The Breaks ( sample )
24.Justin Timberlake – Can’t Stop The Feeling
25.Jason DeRulo – Get Ugly
26.G-Eazy x Bebe Rexha – Me, Myself & I
27.Jonas Blue Feat.Dakota – Fast Car
28.Shawn Mendes,Camila Cabello – I Know What You Did Last Summer
29.Duke Dumont – Ocean Drive
30.DNCE – Cake By The Ocean
31.99 Souls Feat.Destiny’s Child & Brandy – The Girls Is Mine
32.Jennifer Lopez – Ain’t Your Mama
33.Cheat Codes x Kris Kross Amsterdam – Sex
34.Imany – Don’t Be So Shy
35.Croatia Squad, Frey vs Laid Back – White Horse
36.Calvin Harris (Feat.Rihanna) – This Is What You Came For
37.Sigala, John Newman, Nile Rodgers – Give Me Your Love
38.R3hab, Quintino – Freak
39.Fedde Le Grand – Rhythm Of The Night
40.ATC – Around The World
41.Robert Miles – Children
42.Galantis – No Money
43.Tujamo – Drop That Low
44.Coldplay – Adventure Of A Lifetime
45.Martin Garrix – Now That I’ve Found You

 
( Mixed & Compiled By Dj Kosta )

 

 

LINK :

 

http://www90.zippyshare.com/v/CHkdlxvZ/file.html

 

 

COVERS + TRACKLIST :

 

http://www37.zippyshare.com/v/hUWw1Fh7/file.html

 

The Best Of 90s By STV ( Videomix )

 

The Best Of 90s By STV ( Videomix )

 

 

TRACKLIST

  001 - The best of 90s intro by STV
  002 - Informer - Snow
  003 - Its My Life - Dj Bobo
  004 - There is a party - DJ Bobo
  005 - Everybody - DJ Bobo
  006 - Mr.President – Coco Jamboo
  007 - Oops Up (Club Mix) - Snap
  008 - Unbelievable - EMF
  009 - Lets Talk About Sex - SaltnPepa
  010 - I've Got the Power - Snap
  011 - This Beat Is Hot - B G The Prince Of Rap
  012 - Gonna Make You Sweat - C & C Music Factory
  013 - Ice Ice Baby - Vanilla Ice
  014 - Theme From S Express - S Express
  015 - Strike It Up - Black Box
  016 - MC Sar & The Real McCoy – It’s On You
  017 - I Dont Know Anybody Else - Black Box
  018 - Twenty 4 Seven – I Can’t Stand It
  019 - Touch Me (Maxi) VS (Hard core mix) by stv - 49ers
  020 - i like to move it - reel 2 real
  021 - Somebody Dance With Me - DJ BOBO
  022 - Rhythm Is A Dancer - Snap
  023 - More And More (Original Club Mix) - Captain Hollywood Project
  024 - Get Ready For This (Orchestral Mix) - 2 Unlimited
  025 - Twilight Zone - 2 Unlimited
  026 - MC Sar & The Real McCoy – Another Night
  027 - Rythm of The Night - Corona
  028 - Because The Night ( T.L.S. Mix ) - Co.Ro. feat. Taleesa
  029 - What Is Love - Haddaway
  030 - Life - Haddaway
  031 - Rock My Heart - Haddaway
  032 - Everybody Needs Somebody - Masterboy
  033 - Mr VAIN - CULTURE BEAT
  034 - Got To Get it - Culture Beat
  035 - Its My Life (Radio Edit) - Dr. Alban
  036 - United - Prince Ital Joe Feat. Marky Mark
  037 - Let The Music Play - Reggy O
  038 - Automatic Lover (Call For Love) - M.C. Sar & The Real Mccoy
  039 - Baby Baby - Corona
  040 - Get-a-Way - Maxx
  041 - Ice MC - Think About The Way
  042 - Piece of My Heart - Intermission
  043 - Master Boy I Got to Give it Up
  044 - Loft - Hold On
  045 - Take Away the Colour - Ice MC Feat. Simone Jay
  046 - Loft - Love is Magic
  047 - Be My Lover - La Bouche
  048 - Master Boy - Feel the heat of the Night
  049 - The Colour Of My Dreams - B.G. The Prince Of Rap
  050 - Outro by STV - stv

Format : MPEG-4
Format profile : Base Media
File size : 3.35 GiB
Duration : 1h 45mn
Overall bit rate mode : Variable
Overall bit rate : 4 547 Kbps

Video
ID : 1
Format : MPEG-4 Visual
Format settings, Matrix : Default (H.263)
Duration : 1h 45mn
Bit rate : 4 390 Kbps
Width : 1 280 pixels
Height : 720 pixels
Display aspect ratio : 16:9
Frame rate mode : Constant
Frame rate : 25.000 fps
Color space : YUV
Chroma subsampling : 4:2:0
Bit depth : 8 bits
Scan type : Progressive
Compression mode : Lossy
Bits/(Pixel*Frame) : 0.191
Stream size : 3.23 GiB (97%)

Audio
ID : 2
Format : AAC
Format/Info : Advanced Audio Codec
Format profile : LC
Duration : 1h 45mn
Bit rate mode : Variable
Bit rate : 152 Kbps
Channel(s) : 2 channels
Channel positions : Front: L R
Sampling rate : 44.1 KHz
Compression mode : Lossy
Stream size : 114 MiB (3%)

ACOUSTICA Vol.1 ( By Dj Kosta ) Re-Upload

FRONT

BACK

 

 

 

ACOUSTICA Vol.1 ( By Dj Kosta )

 

 

 

TRACKLIST

 

 

 

01.Intro
02.Hoobastank – The reason
03.Pimpi Arroyo – You really got me (The Kinks)
04.Arnold t – Bang Bang (my baby shot me down – Nancy Sinatra)
05.Arnold t – What i miss about you (katie melua)
06.Michael Jackson – Cry (New Song)
07.John Legend – Used to love u
08.Frances Ruffele – Lonely symfhony (We Will Be free)
09.Johnny Santiag – No woman no cry (Bob Marley)
10.Wayra feat Umal – Broken wings (Mr Mister)
11.Barry White – It΄s Only Love Doing It΄s Thing
12.El Rubello – My baby just cares for me (Nina Simone)
13.Pimpi Arroyo – Voulez vous coucher avec moi (Lady Marmelade – Labelle)
14.Spiral 3 – cocaine (J.J Cale)
15.Collide – Howie Day
16.Purple Avenue – Love sex magic (Ciara & Justin Timberlake)
17.Dj Kodi – Super duper love (Joss Stone)
18.Blue – One Love
19.Robbie Williams – Feel
20.Lisa Stansfield – The real thing
21.Purple Avenue – American boy (Estelle feat Kanye West)
22.Purple Avenue – Justify my love (Madonna)
23.Kylie Minogue – Confide in me
24.Lemon Ice – Stand by me (radio edit)
25.Tobias – Do you really want to hurt me (Culture Club)
26.Lizzy Pattinson – Sing it back
27.Camilla – 50 Ways To Leave Your Lover
28.Laura Vane – Let the music play (Barry White)
29.Bess Cavendish – Groove is in the heart
30.Raffunk feat Gush – Riders on the storm (The Doors)
31.Justine Suissa – Missing
32.Heiko – Miles away (Madonna)
33.Paolo Nutini – candy
34.Purple Avenue – Nothing compares 2 u (Sinead o Connor)
35.Abbey Walter – The fear (Lily Allen)
36.Lex Luthor – Imagine (John Lennon)
37.Alex Palmer – Woman (Neneh Cherry)
38.Ashaw feat Mary f – Enjoy the silence (Depeche Mode)
39.Spiral 3 – I Shot the sheriff (Bob Marley)
40.Haddaway – I miss You
41.Tina Arena – Show me heaven
42.Pat the cat feat Rachel Moreau – Hotel california (The Eagles)
43.Moondust feat Querubyna – In between days (The Cure)
44.Mastercuts feat Mary f – You oughta know (Alanis Morissette)
45.Will Young – Fridays child
46.Outro

 

 

( Mixed & Compiled By Dj Kosta )

LINK :

http://www105.zippyshare.com/v/pqY2UOaF/file.html

SPRING HITMIX 2016 (By Dj Kosta)

front2

back

 

 

SPRING HITMIX 2016 ( By Dj Kosta )

 

 

 

 

TRACKLIST

 

 

 

00.Intro
01.Hailee Steinfeld Feat.DNCE – Rock Bottom
02.Adele – Hello
03.Silento – Watch Me
04.Twenty One Pilots – Stressed Out
05.Major Lazer – Light It Up
06.Sia Feat.Sean Paul – Cheap Thrills
07.Rihanna Feat.Drake – Work
08.Meghan Trainor – No
09.Flo Rida – My House
10.TLC Vs Mary J.Blige – No Scrubs Vs Family Affair
11.Dr. Dre – The Next Episode ( intro )
12.Soulwash Feat.Tony T – No Games
13.Justin Bieber – Sorry
14.Missy Elliott – Get Ur Freak On
15.Fifth Harmony & Kid Ink – Worth It
16.Ariana Grande – Focus
17.The Chainsmokers – Roses
18.Jason Derulo Feat.J LO – Try Me
19.Flo Rida & Jason Derulo – Hello Friday
20.Baby K Feat.Giusy Ferreri – Roma/Bangkok
21.Dj Katch Feat.Greg Nice – The Horns
22.J Balvin – Ginza
23.Mike Posner – I Took A Pill In Ibiza
24.Kid Ink Feat.Fetty Wap – Promise
25.Yellow Claw & DJ Mustard – In My Room
26.DJ Snake – Middle
27.Fifth Harmony – Work From Home
28.Cheat Codes x Kris Kross Amsterdam – Sex
29.50 Cent – Disco Inferno
30.Benja Styles – Watch Out Khia
31.Pitbull Feat.Mohombi – Baddest Girl In Town
32.David Guetta Feat.Sia & Fetty Wap – Bang My Head
33.Khia – My Neck, My Back
34.Major Lazer Feat.Dj Snake – Lean On
35.Ellie Goulding – Something In The Way You Move
36.Jason Derulo – Get Ugly
37.The Weeknd – In The Night
38.Coldplay – Adventure of A Lifetime
39.Tobtok – Fast Car
40.The Weeknd – Can’t Feel My Face
41.Dua Lipa – Be The One
42.Lost Frequencies – Are You With Me
43.Gwen Stefani – Make Me Like You
44.DNCE – Cake By The Ocean
45.Fleur East – Sax
46.Shawn Mendes & Camila Cabello – I Know What You Did Last Summer
47.Beyonce – Formation
48.Alan Walker – Faded
49.Imany – Don’t Be So Shy

 

 

( Mixed & Compiled By Dj Kosta )

 

 

LINK :

 

http://www56.zippyshare.com/v/iYxlGXKh/file.html

 

COVERS + TEXT :

 

http://www96.zippyshare.com/v/6yRwbWtN/file.html

 

ONE NIGHT IN DISCOTHEQUE VOL.2 ( By Dj Kosta )

Graphic vol 2 FROND

Graphic vol 2β BACK

 

 

ONE NIGHT IN DISCOTHEQUE VOL.2 ( By Dj Kosta )

 

 

 

 

TRACKLIST

 

 

 

00.Intro
01.Yarbrough & Peoples – Don’t Stop The Music
02.Toto – Hold The Line
03.Piano Fantasia – Song For Denise
04.Fair Control – Symphony Of Love
05.France Gall – Ella, Elle L’a
06.Lucia – Marinero
07.Samantha Fox – Touch Me
08.Tina Charles – Dance Little Lady Dance
09.Black Machine – How Gee
10.James Brown – Sex Machine
11.Murray Head – One Night In Bangkok
12.Laura Branigan – Self Control
13.INXS – Need You Tonight
14.Sign System – Stay With Me
15.Queen – I Want To Break Free
16.Greg Kihn Band – Jeopardy
17.Kurtis Blow – The Breaks
18.Kool & The Gang – Get Down On It
19.P.Lion – Happy Children
20.Rick Astley – Never Gonna Give You Up
21.London Beat – I ‘Ve Been Thinking About You
22.Bandolero – Paris Latino
23.Alisha – Baby Talk
24.Chas Jankel – Glad To Know You
25.Michael Jackson – Billie Jean
26.Michael Jackson – Thriller
27.Santa Esmeralda – Don’t Let Me Be Misunderstood
28.Jimmy Bo Horne – Spank
29.Sabrina – Boys Boys Boys
30.Freeez – I.O.U. ( Intro )
31.ABBA – Gimme! Gimme! Gimme!
32.Kat Mandu – I Wanna Dance
33.D-Train – You’re The One For Me
34.Michael Zager Band – Lets All Chant
35.Black Blood – AIE A. Mwana
36.Numero Uno – Tora Tora Tora
37.Sandra – In The Heat Of The Night
38.Snap – Rhythm Is A Dancer
39.Desireless – Voyage, Voyage
40.Anita Ward – Ring My Bell
41.Bananarama – Venus
42.Gazebo – Lunatic
43.Village People – YMCA
44.Sharp Ties – Get That Beat
45.Rick James – Super Freak
46.Belle Epoque – Black Is Black

 

 

( Mixed & Compiled By Dj Kosta )

 

 

LINK :

 

http://www7.zippyshare.com/v/azfcIIOZ/file.html

 

COVERS + INFO :

 

http://www14.zippyshare.com/v/CFwNrXM4/file.html

PASSION VOL.2 [DEEP & SOULFUL VERSION] – ( By Dj Kosta )

 

front 1

back

 

 

 

PASSION VOL.2 [DEEP & SOULFUL VERSION] – By Dj Kosta

 

 

TRACKLIST

 

 

01.Biddu Orchestra – Girl You’ll Be A Woman Soon

02.Lou Rawls – You’ll Never Find Another Love Like Mine

03.Hozier – Take Me To Church

04.H@k – Disco Fantasy

05.Timmy Thomas vs Cuba Gooding – Why Can’t We Live Together in Happiness

06.Depeche Mode – Enjoy The Silence

07.Tanita Tikaram – Twist In My Sobriety

08.The Weeknd – Can’t Feel My Face

09.Police – Every Breath You Take

10.Kens – Billie Jean All Stars

11.Fleetwood Mac – The Chain

12.Billie Ray Martin – Your Loving Arms

13.Liebe – Flamingo Nights

14.Paul And Fritz Kalkbrenner – Sky and Sand

15.Black – Wonderful Life

16.Al Stewart – Year Of The Cat

17.Bill Withers – Ain’t No Sunshine

18.Calvin Harris & Disciples – How Deep Is Your Love

19.Imany – Don’t Be So Shy

20.Tomcraft – Loneliness

21.Candido – Jingo

22.Indeep – Last Night The Dj Saved My Life

23.Dire Straits – Sultans Of Swing

24.Deep Purple – Child In Time

25.Shakedown & D Train – At Night

26.Bob Marley – Exodus

27.The Doobie Brothers – Long Train Running

28.Gloria Gaynor – I Will Survive

29.Earth Wind & Fire With The Emotions – Boogie Wonderland

 

 

( Mixed & Compiled By Dj Kosta )

 

 

LINK :

 

http://www74.zippyshare.com/v/CsMZ3Bp5/file.html

DJ POL465 – DJ’s Party (δεύτερο ημίωρο)

DJ POL465 – DJ’s Party 2 (δεύτερο ημίωρο)

01 Θάνος Καλλίρης – Καταστροφή μου
02 Αδάμ Και Μαρία – Αλήτικη Ζωή
03 Αλέξια – Το ξέρω το ξέρω
04 Σαμπρίνα – Γειά Σου
05 Πασχάλης – Παραπονάκι Μου Γλυκό
06 Μαντώ – Σώμα με σώμα
07 Γιάννης Μηλιώκας – Απόψε θα γουστάρουμε παρέα
08 Γιάννης Σαββιδάκης – Είμαι Θύμα
09 Ευρυδίκη – Κάποιον άλλον
10 Μαντώ – Ραντεβού
11 Κωστας Χαριτοδιπλωμένος – Τουρτα σοκολάτα
12 Σοφία Αρβανίτη – Επανάσταση
13 Ριφιφί – Μη φοβάσαι
14 Διονύσης Σχοινάς – Τώρα είναι αργά
15 Διονύσης Σχοινάς – Τι τρελά μου ζητάς
16 Εκείνος και Εκείνος – Ταξιδιάρικη καρδιά
17 O.P.A – Η καρδιά μου
18 Μιχάλης Ρακιντζής – Πάει Πάει
19 VIPS – Είναι ψέμα
20 Σοφία Αρβανίτη – Ξύλινο πάτωμα
21 Mαντω – Αγκαλίτσες και φιλάκια
22 Πωλίνα – Όλοι τα παίρνουνε
23 Αλέξια – Αλλάξαμε θέση
24 Γιάννης Μηλιώκας – Αλλού τρως
25 Μαντώ – Δώσε μου ένα φιλί
26 Κώστας Χαριτοδιπλωμένος – Ζωή και κότα
27 Αρλέτα – Σερενάτα
28 Γιάννης Γιοκαρίνης – Τίποτα δεν είναι απλό
29 Κωνσταντίνα – Πιο πολύ
30 Ευρυδίκη – Ζηλιάρης ουρανός
31 Μπέσσυ Αργυράκη – Σκόρπια φιλιά (A far l’amore comincia tu)
32 Πασχάλης – Copacabana
33 Πωλίνα – Πάμε για τρέλες στις Σεϋχέλλες
34 Μαντώ – Αυτό Το Καλοκαίρι
35 Μιχάλης Ρακιντζής – Μωρό μου φάλτσο
36 Πασχάλης – Κατερίνα Κατερινάκι
37 Γιάννης Μηλιώκας – Ερωτεύτηκα
38 Πωλίνα – Χορεύω
39 Αλέξια – Έλα Μια Νύχτα
40 Κώστας Μπίγαλης – Το καπελάκι
41 Μπίγαλης Κώστας – Boeing 747
42 Βίκυ Χαρίτου – Νύχτες στην Μύκονο

 

Audio
Format : MP3
Time : 33mn 57s
Bit rate : 320 Kbps
Channel(s) : 2 channels
Sampling rate : 44.1 KHz
Stream size : 77.7 MiB (100%)

 

Inspirations Of Deep (Deep House Session Vol 20 By Junior D )

 

Graphic2_zpsisuvbcwn (1)

 

Inspirations Of Deep (Deep House Session Vol 20 By Junior D)

 

 

TRACKLIST

 

01. Tricky – Time To Dance (Maya Jane Coles Remix)
02. Luis Leon & Memo Insua – Lost Secrets (Original Mix)
03. Booka Shade – Love Drug (Maya Jane Coles Remix)
04. Roni Iron – Deeper (Original Mix)
05. Nikko Sunset – Baja (Aris Psychas Remix)
06. Mickey – Holding Hands (Original Mix)
07. Miguel Migs – Dance And Clap (Soul Bounce Mix)
08. Metodi Hristov – Breaking News (Original Remix)
09. Dino Lenny – Waiting For The Daylight (Dino Lenny Remix)
10. V-Sag Feat Anna Maria X – That Golden Dress (Original Mix)
11. Rene Amesz – Away (Original Mix)
12. Jame Moorfield – The Whurk (Original Mix)
13. Mario Aureo – Going Back (Daniel Shepherd Remix)
14. Spieltape – Bag Of Bones (Nikitin Remix)
15. Central Rodeo – Let Me Tell (Original Mix)

 

 

LINK:

 
http://www86.zippyshare.com/v/Y38yoBYH/file.html